&title=[宴] Wonderland Wars オープニング
&artist=「童話」は、全て「戦記」だった
&wholebpm=70
&demo_seek=2
&demo_len=48.2
&lv_7=宴
&inote_7=(70.0){1},
{16}5/6/2h[4:7],,5/6,,2,3,2,1,2,,5/6,,2,3,2,1,
{16}2,,5/6,,2,3,2,1,2,,1,2,3,,,,
{16}3/4/7h[4:7],,3/4,,7,6,7,8,7,,3/4,,7,6,7,8,
{16}7,,3/4,,7,6,7,8,7,,8,7,6,,,,
{4}2h[4:3]/8h[4:3],4h[2:1]/6h[2:1],2/8,2/8,
{4}1h[4:3]/7h[4:3],3h[2:1]/5h[2:1],1/7,1/7,
{8}2h[4:3]/8h[4:3],,4h[2:1]/6h[2:1],,2/8,2/8,2/8,,
{8}1h[4:3]/7h[4:3],,3h[2:1]/5h[2:1],,1/7,1/7,1/7,,
{8}7h[4:3],6h[8:5],5h[2:1],4h[8:3],3h[4:1],,,,
{8}2h[4:3],3h[8:5],4h[2:1],5h[8:3],6h[4:1],,,,
{8}2h[4:3],1h[8:5],8h[2:1],7h[8:3],6h[4:1],,,,
{8}7h[4:3],8h[8:5],1h[2:1],2h[8:3],3h[4:1],,,,
{1}4b-1[8:3]*-2[8:3]*-6[8:3]*-7[8:3]*-8[8:3]/5b-1[8:3]*-2[8:3]*-3[8:3]*-7[8:3]*-8[8:3],
{47},,,,,,,,,,,,,,,,,,,,,
{625}2h[1921:1245]/8h[1921:1245]/1-5[135.03#2592:3889],,,,,,,,,,,,,,,,,,,,,,,,,,,,,,,,,,,,,,,,,,,,,,,,,,,,,,,,,,,,,,,,,,,,,,,,,,,,,,,,,,,,,,,,,,,,,,,,,,,,,,,,,,,,,,,,,,,,,,,,,,,,,,,,,,,,,,,,,,,,,,,,,,,,,,,,,,,,,,,,,,
{914}4h[18:7]/6h[18:7],,,,,,,,,,,,,,,,,,,,,,,,,,,,,,,,,,,,,,,,,,,,,,,,,,,,,,,,,,,,,,,,,,,,,,,,,,,,,,,,,,,,,,,,,,,,,,,,,,,,,,,,,,,,,,,,,,,,,,,,,,,,,,,,,,,,,,,,,,,,,,,,,,,,,,,,,,,,,,,,,,,,,,,,,,,,,,,,,,,,,,,,,,,,,,,,,,,,,,,,,,,,,,,,,,,,,,,,,,,,,,,,,,,,,,,,,,,,,
{317}2/8,,,,,,,,,,,
{843},,,,,,,,,,,,,,,,,,,,,,,,,,,,,,,,,,,,,,,,,,,,,,,,,,,,,,,,,,,,,,,,,,,,,,,,,,,,,,,,
{18}2/8,,,,,,,
{914}1h[1921:1245]/7h[1921:1245]/8-4[135.03#2592:3889],,,,,,,,,,,,,,,,,,,,,,,,,,,,,,,,,,,,,,,,,,,,,,,,,,,,,,,,,,,,,,,,,,,,,,,,,,,,,,,,,,,,,,,,,,,,,,,,,,,,,,,,,,,,,,,,,,,,,,,,,,,,,,,,,,,,,,,,,,,,,,,,,,,,,,,,,,,,,,,,,,,,,,,,,,,,,,,,,,,,,,,,,,,,,,,,,,,,,,,,,,,,,,,,,,,,,,,,,,,,,,,,,,,,,,,,,,,,,
{471}3h[18:7]/5h[18:7],,,,,,,,,,,,,,,,,,,,,,,,,,,,,,,,,,,,,,,,,,,,,,,,,,,,,,,,,,,,,,,,,,,,,,,,,,,,,,,,,,,,,,,,,,,,,,,,,,,,,,,,,,,,,,,,,,,,,,,,,
{435},
{625}1/7,,,,,,,,,,,,,,,,,,,,,,,,,,,,,,,,,,,,,,,,,,,,,,,,,,,,,,,,,,,,,,,,,,,,,,,,,,,,,,,,,
{18}1/7,,,,,,,
{914}2h[18:7]/7h[18:7]/1-4[135.03#5184:4861]*p4[135.03#5184:4861]*-5[135.03#5184:4861]/8-4[135.03#5184:4861]*-5[135.03#5184:4861]*q5[135.03#5184:4861],,,,,,,,,,,,,,,,,,,,,,,,,,,,,,,,,,,,,,,,,,,,,,,,,,,,,,,,,,,,,,,,,,,,,,,,,,,,,,,,,,,,,,,,,,,,,,,,,,,,,,,,,,,,,,,,,,,,,,,,,,,,,,,,,,,,,,,,,,,,,,,,,,,,,,,,,,,,,,,,,,,,,,,,,,,,,,,,,,,,,,,,,,,,,,,,,,,,,,,,,,,,,,,,,,,,,,,,,,,,,,,,,,,,,,,,,,,,,
{814}1h[625:81]/8h[625:81],,,,,,,,,,,,,,,,,,,,,,,,,,,,,,,,,,,,,,,,,,,,,,,,,,,,,,,,,,,,,,,,,,,,,,,,,,,,,,,,,,,,,,,,,,,,,,,,,,,,,,,,,,,,,,,,,,,,,,,,,,,,,,,,,,,,,,,,,,,,,,,,,,,,,,,,,,,,,,,,,,,,,,,,,,,,,,,,,,,
{571},,,,,,,,,,,,,,,,,,,,,,,,,,,,,,,,,,,,,,,,,,,,,,,,,,,,,,,,,,,,,,,,,,,,,,,,,,,,,,,,,,,,,,,,,,,,,,,,,,,,,,,,,,,,,,,,,,,,,,,,,,,,,,,,,,,,,,,,,,,,,,,,,,,,,,,,
{625}1h[1902:3575]/8h[1902:3575],,,,,,,,,,,,,,,,,,,,,,,,,,,,,,,,,,,,,,,,,,,,,,,,,,,,,,,,,,,,,,,,,,,,,,,,,,,,,,,,,
{532}2h[4:7]/7h[4:7],,,,,,,,,,,,,,,,,,,,,,,,,,,,,,,,,,,,,,,,,,,,,,,,,,,,,,,,,,,,,,,,,,,,,
{951}3h[1549:2510]/6h[1549:2510],,,,,,,,,,,,,,,,,,,,,,,,,,,,,,,,,,,,,,,,,,,,,,,,,,,,,,,,,,,,,,,,,,,,,,,,,,,,,,,,,,,,,,,,,,,,,,,,,,,,,,,,,,,,,,,,,,,,,,,,,,,,,,,,,,,,,,,,,,,,,,,,,,,,,,,,,,,,,,,,,,,,,,,,,,,,,,,,,,,,,,,,,,,,,,,,,,,,,,,,,,,,,,,,,,,,,,,,,,,,,,,,,,,,,,,,,,,,,,,,,,,,,,,,,,,,,,,,,,,,,,,,,,,,,,,,,,,,,,,,,,,,,,,,,,,,,,,,,,,,,,,,,,,,,,,,,,,,,,,,,,,,,,,,,,,,,,,,,,,,,,,,,,,,,,,,,,,,,,,,,,,,,,,,,,,,,,,,,,,,,,,,,,,,,,,,,,,,,,,,,,,,,,,,,,,,,,,,,,,,,,,,,,,,,,,,,,,,,,,,,,,,,,,,,,,,,,,,,,,,,,,,,,,,,,,,,,,,,,,,,,,,,,,,,,,,,,,,,,,,,,,,,,,,,,,,,,,,,,,,,,,,,,,,,,,,,,,,,,,,,,,,,,,,,,,,,,,,,,,,,,,,,,,,,,,,,,,,,,,,,,,,,,,,,,{1},,
E
